  0
SECTION
  2
HEADER
  9
$ACADVER
  1
AC1009
  9
$INSBASE
 10
0.0
 20
0.0
 30
0.0
  9
$EXTMIN
 10
3.5751206009665308
 20
2.0659398896339058
 30
0.0
  9
$EXTMAX
 10
10.90548775812071
 20
11.382092773966461
 30
0.0
  9
$LIMMIN
 10
0.0
 20
0.0
  9
$LIMMAX
 10
12.0
 20
9.0
  9
$ORTHOMODE
 70
     1
  9
$REGENMODE
 70
     1
  9
$FILLMODE
 70
     1
  9
$QTEXTMODE
 70
     0
  9
$MIRRTEXT
 70
     1
  9
$DRAGMODE
 70
     2
  9
$LTSCALE
 40
1.0
  9
$OSMODE
 70
     0
  9
$ATTMODE
 70
     1
  9
$TEXTSIZE
 40
0.1875
  9
$TRACEWID
 40
0.05
  9
$TEXTSTYLE
  7
STANDARD
  9
$CLAYER
  8
0
  9
$CELTYPE
  6
BYLAYER
  9
$CECOLOR
 62
   256
  9
$DIMSCALE
 40
1.0416666666666661
  9
$DIMASZ
 40
0.18
  9
$DIMEXO
 40
0.0625
  9
$DIMDLI
 40
0.38
  9
$DIMRND
 40
0.0
  9
$DIMDLE
 40
0.0
  9
$DIMEXE
 40
0.18
  9
$DIMTP
 40
0.0
  9
$DIMTM
 40
0.0
  9
$DIMTXT
 40
0.18
  9
$DIMCEN
 40
0.09
  9
$DIMTSZ
 40
0.0
  9
$DIMTOL
 70
     0
  9
$DIMLIM
 70
     0
  9
$DIMTIH
 70
     1
  9
$DIMTOH
 70
     1
  9
$DIMSE1
 70
     0
  9
$DIMSE2
 70
     0
  9
$DIMTAD
 70
     0
  9
$DIMZIN
 70
     0
  9
$DIMBLK
  1

  9
$DIMASO
 70
     1
  9
$DIMSHO
 70
     1
  9
$DIMPOST
  1

  9
$DIMAPOST
  1

  9
$DIMALT
 70
     0
  9
$DIMALTD
 70
     2
  9
$DIMALTF
 40
25.399999999999999
  9
$DIMLFAC
 40
1.0
  9
$DIMTOFL
 70
     0
  9
$DIMTVP
 40
0.0
  9
$DIMTIX
 70
     0
  9
$DIMSOXD
 70
     0
  9
$DIMSAH
 70
     0
  9
$DIMBLK1
  1

  9
$DIMBLK2
  1

  9
$DIMSTYLE
  2
STANDARD
  9
$DIMCLRD
 70
     0
  9
$DIMCLRE
 70
     0
  9
$DIMCLRT
 70
     0
  9
$DIMTFAC
 40
1.0
  9
$DIMGAP
 40
0.09
  9
$LUNITS
 70
     2
  9
$LUPREC
 70
     4
  9
$SKETCHINC
 40
0.1
  9
$FILLETRAD
 40
0.5
  9
$AUNITS
 70
     0
  9
$AUPREC
 70
     0
  9
$MENU
  1
.
  9
$ELEVATION
 40
0.0
  9
$PELEVATION
 40
0.0
  9
$THICKNESS
 40
0.0
  9
$LIMCHECK
 70
     0
  9
$BLIPMODE
 70
     0
  9
$CHAMFERA
 40
0.5
  9
$CHAMFERB
 40
0.5
  9
$SKPOLY
 70
     0
  9
$TDCREATE
 40
2452314.666734606
  9
$TDUPDATE
 40
2452776.4439912029
  9
$TDINDWG
 40
0.0065199074
  9
$TDUSRTIMER
 40
0.0065199074
  9
$USRTIMER
 70
     1
  9
$ANGBASE
 50
0.0
  9
$ANGDIR
 70
     0
  9
$PDMODE
 70
     0
  9
$PDSIZE
 40
0.0
  9
$PLINEWID
 40
0.0
  9
$COORDS
 70
     2
  9
$SPLFRAME
 70
     0
  9
$SPLINETYPE
 70
     6
  9
$SPLINESEGS
 70
     8
  9
$ATTDIA
 70
     1
  9
$ATTREQ
 70
     1
  9
$HANDLING
 70
-16383
  9
$HANDSEED
  5
1D9
  9
$SURFTAB1
 70
     6
  9
$SURFTAB2
 70
     6
  9
$SURFTYPE
 70
     6
  9
$SURFU
 70
     6
  9
$SURFV
 70
     6
  9
$UCSNAME
  2

  9
$UCSORG
 10
0.0
 20
0.0
 30
0.0
  9
$UCSXDIR
 10
1.0
 20
0.0
 30
0.0
  9
$UCSYDIR
 10
0.0
 20
1.0
 30
0.0
  9
$PUCSNAME
  2

  9
$PUCSORG
 10
0.0
 20
0.0
 30
0.0
  9
$PUCSXDIR
 10
1.0
 20
0.0
 30
0.0
  9
$PUCSYDIR
 10
0.0
 20
1.0
 30
0.0
  9
$USERI1
 70
     0
  9
$USERI2
 70
     0
  9
$USERI3
 70
     0
  9
$USERI4
 70
     0
  9
$USERI5
 70
     0
  9
$USERR1
 40
0.09375
  9
$USERR2
 40
0.0
  9
$USERR3
 40
0.0
  9
$USERR4
 40
0.0
  9
$USERR5
 40
0.0
  9
$WORLDVIEW
 70
     1
  9
$SHADEDGE
 70
     3
  9
$SHADEDIF
 70
    70
  9
$TILEMODE
 70
     1
  9
$MAXACTVP
 70
    64
  9
$PLIMCHECK
 70
     0
  9
$PEXTMIN
 10
1.0000000000000000E+020
 20
1.0000000000000000E+020
 30
1.0000000000000000E+020
  9
$PEXTMAX
 10
-1.0000000000000000E+020
 20
-1.0000000000000000E+020
 30
-1.0000000000000000E+020
  9
$PLIMMIN
 10
0.0
 20
0.0
  9
$PLIMMAX
 10
12.0
 20
9.0
  9
$UNITMODE
 70
     0
  9
$VISRETAIN
 70
     1
  9
$PLINEGEN
 70
     0
  9
$PSLTSCALE
 70
     1
  0
ENDSEC
  0
SECTION
  2
TABLES
  0
TABLE
  2
VPORT
 70
     3
  0
VPORT
  2
*ACTIVE
 70
     0
 10
0.0
 20
0.0
 11
1.0
 21
1.0
 12
6.7384546983426699
 22
7.69139540758915
 13
0.0
 23
0.0
 14
0.5
 24
0.5
 15
0.5
 25
0.5
 16
0.0
 26
0.0
 36
1.0
 17
0.0
 27
0.0
 37
0.0
 40
10.43975881697023
 41
1.4625158831003811
 42
50.0
 43
0.0
 44
0.0
 50
0.0
 51
0.0
 71
     0
 72
   100
 73
     1
 74
     3
 75
     0
 76
     0
 77
     0
 78
     0
  0
ENDTAB
  0
TABLE
  2
LTYPE
 70
     1
  0
LTYPE
  2
CONTINUOUS
 70
     0
  3
Solid line
 72
    65
 73
     0
 40
0.0
  0
ENDTAB
  0
TABLE
  2
LAYER
 70
     5
  0
LAYER
  2
0
 70
     0
 62
     7
  6
CONTINUOUS
  0
LAYER
  2
L
 70
     0
 62
     7
  6
CONTINUOUS
  0
LAYER
  2
DEFPOINTS
 70
     0
 62
     7
  6
CONTINUOUS
  0
LAYER
  2
TX
 70
     0
 62
   150
  6
CONTINUOUS
  0
LAYER
  2
DRAW
 70
     0
 62
     7
  6
CONTINUOUS
  0
ENDTAB
  0
TABLE
  2
STYLE
 70
     4
  0
STYLE
  2
STANDARD
 70
     0
 40
0.0
 41
1.0
 50
0.0
 71
     0
 42
0.1875
  3
txt
  4

  0
STYLE
  2
REG
 70
     0
 40
0.0
 41
1.0
 50
0.0
 71
     0
 42
0.09375
  3
E:\R13\com\fonts\ARCHITXT.SHX
  4

  0
STYLE
  2
DIMTXT
 70
     0
 40
0.0
 41
1.0
 50
0.0
 71
     0
 42
1.125
  3
archt.shx
  4

  0
STYLE
  2
ROMAND
 70
     0
 40
0.125
 41
1.0
 50
0.0
 71
     0
 42
0.125
  3
romand
  4

  0
ENDTAB
  0
TABLE
  2
VIEW
 70
     0
  0
ENDTAB
  0
TABLE
  2
UCS
 70
     0
  0
ENDTAB
  0
TABLE
  2
APPID
 70
     1
  0
APPID
  2
ACAD
 70
     0
  0
ENDTAB
  0
TABLE
  2
DIMSTYLE
 70
    10
  0
DIMSTYLE
  2
STANDARD
 70
     0
  3

  4

  5

  6

  7

 40
1.0
 41
0.18
 42
0.0625
 43
0.38
 44
0.18
 45
0.0
 46
0.0
 47
0.0
 48
0.0
140
0.18
141
0.09
142
0.0
143
25.399999999999999
144
1.0
145
0.0
146
1.0
147
0.09
 71
     0
 72
     0
 73
     1
 74
     1
 75
     0
 76
     0
 77
     0
 78
     0
170
     0
171
     2
172
     0
173
     0
174
     0
175
     0
176
     0
177
     0
178
     0
  0
DIMSTYLE
  2
1
 70
     0
  3

  4

  5

  6

  7

 40
1.0
 41
1.125
 42
0.5
 43
0.375
 44
1.19921875
 45
0.0
 46
0.5
 47
0.0
 48
0.0
140
1.125
141
0.125
142
0.0
143
25.399999999999999
144
1.0
145
0.0
146
0.8
147
0.5625
 71
     0
 72
     0
 73
     0
 74
     0
 75
     0
 76
     0
 77
     1
 78
     3
170
     0
171
     2
172
     1
173
     0
174
     1
175
     0
176
   133
177
   133
178
   150
  0
DIMSTYLE
  2
1$2
 70
     0
  3

  4

  5
DOTSMALL
  6

  7

 40
1.0
 41
1.5
 42
0.5
 43
0.375
 44
1.19921875
 45
0.0
 46
0.5
 47
0.0
 48
0.0
140
0.75
141
0.125
142
0.0
143
25.399999999999999
144
1.0
145
0.0
146
0.8
147
0.5625
 71
     0
 72
     0
 73
     0
 74
     0
 75
     0
 76
     0
 77
     1
 78
     3
170
     0
171
     2
172
     1
173
     0
174
     1
175
     0
176
   133
177
   133
178
   150
  0
DIMSTYLE
  2
1$4
 70
     0
  3

  4

  5

  6

  7
DOTSMALL
 40
1.0
 41
1.5
 42
0.5
 43
0.375
 44
1.19921875
 45
0.0
 46
0.5
 47
0.0
 48
0.0
140
0.75
141
0.125
142
0.0
143
25.399999999999999
144
1.0
145
0.0
146
0.8
147
0.5625
 71
     0
 72
     0
 73
     0
 74
     0
 75
     0
 76
     0
 77
     1
 78
     3
170
     0
171
     2
172
     1
173
     1
174
     1
175
     0
176
   133
177
   133
178
   150
  0
DIMSTYLE
  2
1$3
 70
     0
  3

  4

  5
DOTSMALL
  6

  7

 40
1.0
 41
1.5
 42
0.5
 43
0.375
 44
1.19921875
 45
0.0
 46
0.5
 47
0.0
 48
0.0
140
0.75
141
0.125
142
0.0
143
25.399999999999999
144
1.0
145
0.0
146
0.8
147
0.5625
 71
     0
 72
     0
 73
     0
 74
     0
 75
     0
 76
     0
 77
     1
 78
     3
170
     0
171
     2
172
     1
173
     0
174
     1
175
     0
176
   133
177
   133
178
   150
  0
DIMSTYLE
  2
1$7
 70
     0
  3

  4

  5

  6

  7

 40
1.0
 41
1.0
 42
0.5
 43
0.375
 44
1.19921875
 45
0.0
 46
0.5
 47
0.0
 48
0.0
140
0.75
141
0.125
142
0.0
143
25.399999999999999
144
1.0
145
0.0
146
0.8
147
0.5625
 71
     0
 72
     0
 73
     0
 74
     0
 75
     0
 76
     0
 77
     1
 78
     3
170
     0
171
     2
172
     1
173
     0
174
     1
175
     0
176
   133
177
   133
178
   150
  0
DIMSTYLE
  2
STANDARD$2
 70
     0
  3

  4

  5
DOTSMALL
  6

  7

 40
1.0
 41
1.5
 42
0.5
 43
0.375
 44
0.5
 45
0.0
 46
0.5
 47
0.0
 48
0.0
140
0.75
141
0.125
142
0.0
143
25.399999999999999
144
1.0
145
0.0
146
0.8
147
0.25
 71
     0
 72
     0
 73
     0
 74
     0
 75
     0
 76
     0
 77
     1
 78
     4
170
     0
171
     2
172
     1
173
     0
174
     1
175
     0
176
   133
177
   133
178
   150
  0
DIMSTYLE
  2
STANDARD$4
 70
     0
  3

  4

  5

  6
DOTSMALL
  7
DOTSMALL
 40
1.0
 41
1.5
 42
0.5
 43
0.375
 44
0.5
 45
0.0
 46
0.5
 47
0.0
 48
0.0
140
0.75
141
0.125
142
0.0
143
25.399999999999999
144
1.0
145
0.0
146
0.8
147
0.25
 71
     0
 72
     0
 73
     1
 74
     1
 75
     0
 76
     0
 77
     0
 78
     4
170
     0
171
     2
172
     1
173
     1
174
     1
175
     0
176
   133
177
   133
178
   150
  0
DIMSTYLE
  2
STANDARD$3
 70
     0
  3

  4

  5
DOTSMALL
  6

  7

 40
1.0
 41
1.5
 42
0.5
 43
0.375
 44
0.5
 45
0.0
 46
0.5
 47
0.0
 48
0.0
140
0.75
141
0.125
142
0.0
143
25.399999999999999
144
1.0
145
0.0
146
0.8
147
0.25
 71
     0
 72
     0
 73
     1
 74
     1
 75
     0
 76
     0
 77
     0
 78
     4
170
     0
171
     2
172
     1
173
     0
174
     1
175
     0
176
   133
177
   133
178
   150
  0
DIMSTYLE
  2
STANDARD$7
 70
     0
  3

  4

  5
DOTSMALL
  6

  7

 40
1.0
 41
1.5
 42
0.5
 43
0.375
 44
0.5
 45
0.0
 46
0.5
 47
0.0
 48
0.0
140
0.75
141
0.125
142
0.0
143
25.399999999999999
144
1.0
145
0.0
146
0.8
147
0.25
 71
     0
 72
     0
 73
     0
 74
     0
 75
     0
 76
     0
 77
     1
 78
     4
170
     0
171
     2
172
     1
173
     0
174
     1
175
     0
176
   133
177
   133
178
   150
  0
ENDTAB
  0
ENDSEC
  0
SECTION
  2
BLOCKS
  0
BLOCK
  8
0
  2
$MODEL_SPACE
 70
     0
 10
0.0
 20
0.0
 30
0.0
  3
$MODEL_SPACE
  1

  0
ENDBLK
  5
21
  8
0
  0
BLOCK
 67
     1
  8
0
  2
$PAPER_SPACE
 70
     0
 10
0.0
 20
0.0
 30
0.0
  3
$PAPER_SPACE
  1

  0
ENDBLK
  5
1D
 67
     1
  8
0
  0
BLOCK
  8
0
  2
_DOT
 70
     0
 10
0.0
 20
0.0
 30
0.0
  3
_DOT
  1

  0
POLYLINE
  5
2C
  8
L
 62
     0
 66
     1
 10
0.0
 20
0.0
 30
0.0
 70
     1
 40
0.5
 41
0.5
  0
VERTEX
  5
196
  8
L
 62
     0
 10
-0.25
 20
0.0
 30
0.0
 42
1.0
  0
VERTEX
  5
197
  8
L
 62
     0
 10
0.25
 20
0.0
 30
0.0
 42
1.0
  0
SEQEND
  5
198
  8
L
 62
     0
  0
LINE
  5
2D
  8
L
 62
     0
 10
-0.5
 20
0.0
 30
0.0
 11
-1.0
 21
0.0
 31
0.0
  0
ENDBLK
  5
2F
  8
0
  0
BLOCK
  8
0
  2
_DOTSMALL
 70
     0
 10
0.0
 20
0.0
 30
0.0
  3
_DOTSMALL
  1

  0
POLYLINE
  5
31
  8
0
  6
BYBLOCK
 62
     0
 66
     1
 10
0.0
 20
0.0
 30
0.0
 70
     1
 40
0.5
 41
0.5
  0
VERTEX
  5
199
  8
0
  6
BYBLOCK
 62
     0
 10
-0.0625
 20
0.0
 30
0.0
 42
1.0
  0
VERTEX
  5
19A
  8
0
  6
BYBLOCK
 62
     0
 10
0.0625
 20
0.0
 30
0.0
 42
1.0
  0
SEQEND
  5
19B
  8
0
  6
BYBLOCK
 62
     0
  0
ENDBLK
  5
33
  8
0
  0
BLOCK
  8
0
  2
*D5
 70
     1
 10
0.0
 20
0.0
 30
0.0
  3
*D5
  1

  0
LINE
  5
118
  8
0
 62
     0
 10
6.2541036963152301
 20
8.8303894744126374
 30
0.0
 11
4.6559842575477388
 21
8.8303894744126374
 31
0.0
  0
LINE
  5
119
  8
0
 62
     0
 10
5.8291036963152294
 20
7.0873894744126362
 30
0.0
 11
4.6559842575477388
 21
7.0873894744126362
 31
0.0
  0
LINE
  5
11A
  8
0
 62
     0
 10
4.8359842575477394
 20
8.6503894744126377
 30
0.0
 11
4.8359842575477394
 21
8.1388894744126361
 31
0.0
  0
LINE
  5
11B
  8
0
 62
     0
 10
4.8359842575477394
 20
7.2673894744126351
 30
0.0
 11
4.8359842575477394
 21
7.7788894744126367
 31
0.0
  0
SOLID
  5
11C
  8
0
 62
     0
 10
4.8059842575477392
 20
8.6503894744126377
 30
0.0
 11
4.8659842575477388
 21
8.6503894744126377
 31
0.0
 12
4.8359842575477394
 22
8.8303894744126374
 32
0.0
 13
4.8359842575477394
 23
8.8303894744126374
 33
0.0
  0
SOLID
  5
11D
  8
0
 62
     0
 10
4.8059842575477392
 20
7.2673894744126351
 30
0.0
 11
4.8659842575477388
 21
7.2673894744126351
 31
0.0
 12
4.8359842575477394
 22
7.0873894744126362
 32
0.0
 13
4.8359842575477394
 23
7.0873894744126362
 33
0.0
  0
TEXT
  5
11E
  8
0
 62
     0
 10
4.5959842575477383
 20
7.8688894744126383
 30
0.0
 40
0.18
  1
1.74
  0
POINT
  5
11F
  8
DEFPOINTS
 62
     0
 10
6.3166036963152301
 20
8.8303894744126374
 30
0.0
  0
POINT
  5
120
  8
DEFPOINTS
 62
     0
 10
5.8916036963152294
 20
7.0873894744126362
 30
0.0
  0
POINT
  5
121
  8
DEFPOINTS
 62
     0
 10
4.8359842575477394
 20
7.0873894744126362
 30
0.0
  0
ENDBLK
  5
123
  8
0
  0
BLOCK
  8
0
  2
*D6
 70
     1
 10
0.0
 20
0.0
 30
0.0
  3
*D6
  1

  0
LINE
  5
126
  8
0
 62
     0
 10
5.8581036963152293
 20
7.834389474412637
 30
0.0
 11
5.3398655952923413
 21
7.834389474412637
 31
0.0
  0
LINE
  5
127
  8
0
 62
     0
 10
5.8291036963152294
 20
7.0873894744126362
 30
0.0
 11
5.3398655952923413
 21
7.0873894744126362
 31
0.0
  0
LINE
  5
128
  8
0
 62
     0
 10
5.5198655952923401
 20
7.6543894744126373
 30
0.0
 11
5.5198655952923401
 21
7.2673894744126351
 31
0.0
  0
LINE
  5
129
  8
0
 62
     0
 10
5.5198655952923401
 20
7.0873894744126362
 30
0.0
 11
5.5198655952923401
 21
6.9073894744126356
 31
0.0
  0
LINE
  5
12A
  8
0
 62
     0
 10
5.5198655952923401
 20
6.9073894744126356
 30
0.0
 11
5.3398655952923413
 21
6.9073894744126356
 31
0.0
  0
SOLID
  5
12B
  8
0
 62
     0
 10
5.4898655952923399
 20
7.6543894744126373
 30
0.0
 11
5.5498655952923412
 21
7.6543894744126373
 31
0.0
 12
5.5198655952923401
 22
7.834389474412637
 32
0.0
 13
5.5198655952923401
 23
7.834389474412637
 33
0.0
  0
SOLID
  5
12C
  8
0
 62
     0
 10
5.4898655952923399
 20
7.2673894744126351
 30
0.0
 11
5.5498655952923412
 21
7.2673894744126351
 31
0.0
 12
5.5198655952923401
 22
7.0873894744126362
 32
0.0
 13
5.5198655952923401
 23
7.0873894744126362
 33
0.0
  0
TEXT
  5
12D
  8
0
 62
     0
 10
4.7398655952923381
 20
6.8173894744126367
 30
0.0
 40
0.18
  1
0.75
  0
POINT
  5
12E
  8
DEFPOINTS
 62
     0
 10
5.9206036963152293
 20
7.834389474412637
 30
0.0
  0
POINT
  5
12F
  8
DEFPOINTS
 62
     0
 10
5.8916036963152294
 20
7.0873894744126362
 30
0.0
  0
POINT
  5
130
  8
DEFPOINTS
 62
     0
 10
5.5198655952923401
 20
7.0873894744126362
 30
0.0
  0
ENDBLK
  5
132
  8
0
  0
BLOCK
  8
0
  2
*D7
 70
     1
 10
0.0
 20
0.0
 30
0.0
  3
*D7
  1

  0
LINE
  5
135
  8
0
 62
     0
 10
5.8816036963152287
 20
7.8578894744126373
 30
0.0
 11
5.8816036963152287
 21
9.2421318159392456
 31
0.0
  0
LINE
  5
136
  8
0
 62
     0
 10
6.3556036963152289
 20
8.8538894744126377
 30
0.0
 11
6.3556036963152289
 21
9.2421318159392456
 31
0.0
  0
LINE
  5
137
  8
0
 62
     0
 10
5.701603696315229
 20
9.0621318159392459
 30
0.0
 11
5.5216036963152293
 21
9.0621318159392459
 31
0.0
  0
LINE
  5
138
  8
0
 62
     0
 10
6.5356036963152286
 20
9.0621318159392459
 30
0.0
 11
6.7156036963152301
 21
9.0621318159392459
 31
0.0
  0
SOLID
  5
139
  8
0
 62
     0
 10
5.701603696315229
 20
9.0921318159392452
 30
0.0
 11
5.701603696315229
 21
9.0321318159392465
 31
0.0
 12
5.8816036963152287
 22
9.0621318159392459
 32
0.0
 13
5.8816036963152287
 23
9.0621318159392459
 33
0.0
  0
SOLID
  5
13A
  8
0
 62
     0
 10
6.5356036963152286
 20
9.0921318159392452
 30
0.0
 11
6.5356036963152286
 21
9.0321318159392465
 31
0.0
 12
6.3556036963152289
 22
9.0621318159392459
 32
0.0
 13
6.3556036963152289
 23
9.0621318159392459
 33
0.0
  0
TEXT
  5
13B
  8
0
 62
     0
 10
6.8056036963152291
 20
8.972131815939246
 30
0.0
 40
0.18
  1
0.47
  0
POINT
  5
13C
  8
DEFPOINTS
 62
     0
 10
5.8816036963152287
 20
7.7953894744126373
 30
0.0
  0
POINT
  5
13D
  8
DEFPOINTS
 62
     0
 10
6.3556036963152289
 20
8.7913894744126377
 30
0.0
  0
POINT
  5
13E
  8
DEFPOINTS
 62
     0
 10
6.3556036963152289
 20
9.0621318159392459
 30
0.0
  0
ENDBLK
  5
140
  8
0
  0
BLOCK
  8
0
  2
*D9
 70
     1
 10
0.0
 20
0.0
 30
0.0
  3
*D9
  1

  0
LINE
  5
158
  8
0
 62
     0
 10
6.019433858885729
 20
10.862803443271821
 30
0.0
 11
5.4589091446249327
 21
10.862803443271821
 31
0.0
  0
LINE
  5
159
  8
0
 62
     0
 10
6.0644338588854598
 20
6.8925086880140363
 30
0.0
 11
5.4589091446249318
 21
6.8925086880140372
 31
0.0
  0
LINE
  5
15A
  8
0
 62
     0
 10
5.5526591446249327
 20
10.76905344327181
 30
0.0
 11
5.5526591446249318
 21
8.9714060656429275
 31
0.0
  0
LINE
  5
15B
  8
0
 62
     0
 10
5.5526591446249318
 20
6.9862586880140372
 30
0.0
 11
5.5526591446249318
 21
8.7839060656429275
 31
0.0
  0
SOLID
  5
15C
  8
0
 62
     0
 10
5.5370341446249327
 20
10.76905344327181
 30
0.0
 11
5.5682841446249327
 21
10.76905344327181
 31
0.0
 12
5.5526591446249327
 22
10.862803443271821
 32
0.0
 13
5.5526591446249327
 23
10.862803443271821
 33
0.0
  0
SOLID
  5
15D
  8
0
 62
     0
 10
5.5370341446249318
 20
6.9862586880140372
 30
0.0
 11
5.5682841446249318
 21
6.9862586880140372
 31
0.0
 12
5.5526591446249318
 22
6.8925086880140372
 32
0.0
 13
5.5526591446249318
 23
6.8925086880140372
 33
0.0
  0
TEXT
  5
15E
  8
0
 62
     0
 10
5.4120341446249309
 20
8.8307810656429293
 30
0.0
 40
0.09375
  1
3.97
  0
POINT
  5
15F
  8
DEFPOINTS
 62
     0
 10
6.0519859422190621
 20
10.862803443271821
 30
0.0
  0
POINT
  5
160
  8
DEFPOINTS
 62
     0
 10
6.0969859422187929
 20
6.8925086880140363
 30
0.0
  0
POINT
  5
161
  8
DEFPOINTS
 62
     0
 10
5.5526591446249318
 20
6.8925086880140372
 30
0.0
  0
ENDBLK
  5
163
  8
0
  0
BLOCK
  8
0
  2
*D10
 70
     1
 10
0.0
 20
0.0
 30
0.0
  3
*D10
  1

  0
LINE
  5
166
  8
0
 62
     0
 10
5.9769859422189029
 20
10.845355526604971
 30
0.0
 11
5.9769859422189029
 21
11.382092773966461
 31
0.0
  0
LINE
  5
167
  8
0
 62
     0
 10
6.281985942219193
 20
7.5778555266050418
 30
0.0
 11
6.281985942219193
 21
11.382092773966461
 31
0.0
  0
LINE
  5
168
  8
0
 62
     0
 10
6.0707359422189029
 20
11.288342773966461
 30
0.0
 11
6.188235942219193
 21
11.288342773966461
 31
0.0
  0
LINE
  5
169
  8
0
 62
     0
 10
6.281985942219193
 20
11.288342773966461
 30
0.0
 11
6.375735942219193
 21
11.288342773966461
 31
0.0
  0
SOLID
  5
16A
  8
0
 62
     0
 10
6.0707359422189029
 20
11.303967773966461
 30
0.0
 11
6.0707359422189029
 21
11.272717773966461
 31
0.0
 12
5.9769859422189029
 22
11.288342773966461
 32
0.0
 13
5.9769859422189029
 23
11.288342773966461
 33
0.0
  0
SOLID
  5
16B
  8
0
 62
     0
 10
6.188235942219193
 20
11.303967773966461
 30
0.0
 11
6.188235942219193
 21
11.272717773966461
 31
0.0
 12
6.281985942219193
 22
11.288342773966461
 32
0.0
 13
6.281985942219193
 23
11.288342773966461
 33
0.0
  0
TEXT
  5
16C
  8
0
 62
     0
 10
6.422610942219193
 20
11.241467773966461
 30
0.0
 40
0.09375
  1
0.31
  0
POINT
  5
16D
  8
DEFPOINTS
 62
     0
 10
5.9769859422189029
 20
10.81280344327163
 30
0.0
  0
POINT
  5
16E
  8
DEFPOINTS
 62
     0
 10
6.281985942219193
 20
7.5453034432717088
 30
0.0
  0
POINT
  5
16F
  8
DEFPOINTS
 62
     0
 10
6.281985942219193
 20
11.288342773966461
 30
0.0
  0
ENDBLK
  5
171
  8
0
  0
BLOCK
  8
0
  2
*D11
 70
     1
 10
0.0
 20
0.0
 30
0.0
  3
*D11
  1

  0
LINE
  5
174
  8
0
 62
     0
 10
5.9868817755523951
 20
10.862803443271821
 30
0.0
 11
5.2322071748900427
 21
10.862803443271821
 31
0.0
  0
LINE
  5
175
  8
0
 62
     0
 10
6.061881775552326
 20
6.8925086880135806
 30
0.0
 11
5.2322071748900418
 21
6.8925086880135824
 31
0.0
  0
LINE
  5
176
  8
0
 62
     0
 10
5.4197071748900427
 20
10.67530344327181
 30
0.0
 11
5.4197071748900418
 21
9.0651560656427002
 31
0.0
  0
LINE
  5
177
  8
0
 62
     0
 10
5.4197071748900418
 20
7.0800086880135824
 30
0.0
 11
5.4197071748900418
 21
8.6901560656427002
 31
0.0
  0
SOLID
  5
178
  8
0
 62
     0
 10
5.3884571748900427
 20
10.67530344327181
 30
0.0
 11
5.4509571748900427
 21
10.67530344327181
 31
0.0
 12
5.4197071748900427
 22
10.862803443271821
 32
0.0
 13
5.4197071748900427
 23
10.862803443271821
 33
0.0
  0
SOLID
  5
179
  8
0
 62
     0
 10
5.3884571748900418
 20
7.0800086880135824
 30
0.0
 11
5.4509571748900418
 21
7.0800086880135824
 31
0.0
 12
5.4197071748900418
 22
6.8925086880135824
 32
0.0
 13
5.4197071748900418
 23
6.8925086880135824
 33
0.0
  0
TEXT
  5
17A
  8
0
 62
     0
 10
5.1384571748900409
 20
8.7839060656427002
 30
0.0
 40
0.1875
  1
3.97
  0
POINT
  5
17B
  8
DEFPOINTS
 62
     0
 10
6.0519859422190621
 20
10.862803443271821
 30
0.0
  0
POINT
  5
17C
  8
DEFPOINTS
 62
     0
 10
6.126985942218993
 20
6.8925086880135806
 30
0.0
  0
POINT
  5
17D
  8
DEFPOINTS
 62
     0
 10
5.4197071748900418
 20
6.8925086880135824
 30
0.0
  0
ENDBLK
  5
17F
  8
0
  0
BLOCK
  8
0
  2
*D12
 70
     1
 10
0.0
 20
0.0
 30
0.0
  3
*D12
  1

  0
LINE
  5
182
  8
0
 62
     0
 10
5.9769859422189029
 20
10.877907609938299
 30
0.0
 11
5.9769859422189029
 21
11.330110086373169
 31
0.0
  0
LINE
  5
183
  8
0
 62
     0
 10
6.281985942219193
 20
7.6104076099383757
 30
0.0
 11
6.281985942219193
 21
11.330110086373169
 31
0.0
  0
LINE
  5
184
  8
0
 62
     0
 10
5.7894859422189029
 20
11.142610086373169
 30
0.0
 11
5.6019859422189029
 21
11.142610086373169
 31
0.0
  0
LINE
  5
185
  8
0
 62
     0
 10
6.469485942219193
 20
11.142610086373169
 30
0.0
 11
6.656985942219193
 21
11.142610086373169
 31
0.0
  0
SOLID
  5
186
  8
0
 62
     0
 10
5.7894859422189029
 20
11.173860086373169
 30
0.0
 11
5.7894859422189029
 21
11.111360086373169
 31
0.0
 12
5.9769859422189029
 22
11.142610086373169
 32
0.0
 13
5.9769859422189029
 23
11.142610086373169
 33
0.0
  0
SOLID
  5
187
  8
0
 62
     0
 10
6.469485942219193
 20
11.173860086373169
 30
0.0
 11
6.469485942219193
 21
11.111360086373169
 31
0.0
 12
6.281985942219193
 22
11.142610086373169
 32
0.0
 13
6.281985942219193
 23
11.142610086373169
 33
0.0
  0
TEXT
  5
188
  8
0
 62
     0
 10
6.750735942219193
 20
11.048860086373169
 30
0.0
 40
0.1875
  1
0.31
  0
POINT
  5
189
  8
DEFPOINTS
 62
     0
 10
5.9769859422189029
 20
10.81280344327163
 30
0.0
  0
POINT
  5
18A
  8
DEFPOINTS
 62
     0
 10
6.281985942219193
 20
7.5453034432717088
 30
0.0
  0
POINT
  5
18B
  8
DEFPOINTS
 62
     0
 10
6.281985942219193
 20
11.142610086373169
 30
0.0
  0
ENDBLK
  5
18D
  8
0
  0
ENDSEC
  0
SECTION
  2
ENTITIES
  0
TEXT
  5
141
  8
TX
 10
3.6688564436475728
 20
5.8237337597464061
 30
0.0
 40
0.09375
  1
SCALE : 1" = 1"
 11
3.6688564436475728
 21
5.9174837597464061
 31
0.0
 73
     3
  0
TEXT
  5
142
  8
0
 62
     3
 10
3.6688564436475728
 20
6.10495544510849
 30
0.0
 40
0.140625
  1
LARGE RACEWAY MOUNTING CLIP PART #1988
  0
POLYLINE
  5
143
  8
0
 62
     5
 66
     1
 10
0.0
 20
0.0
 30
0.0
 40
0.028125
 41
0.028125
  0
VERTEX
  5
19C
  8
0
 62
     5
 10
3.5751206009665308
 20
6.011219602427448
 30
0.0
  0
VERTEX
  5
19D
  8
0
 62
     5
 10
8.9584568045219939
 20
6.011219602427448
 30
0.0
  0
SEQEND
  5
19E
  8
0
 62
     5
  0
POLYLINE
  5
155
  8
L
  6
CONTINUOUS
 62
     3
 66
     1
 10
0.0
 20
0.0
 30
0.0
 70
     1
  0
VERTEX
  5
1BC
  8
L
  6
CONTINUOUS
 62
     3
 10
6.101985942218902
 20
9.8478034432717187
 30
0.0
  0
VERTEX
  5
1BD
  8
L
  6
CONTINUOUS
 62
     3
 10
6.101985942218902
 20
7.3628034432718179
 30
0.0
 42
0.4142135623730951
  0
VERTEX
  5
1BE
  8
L
  6
CONTINUOUS
 62
     3
 10
6.1219859422188838
 20
7.3428034432718361
 30
0.0
  0
VERTEX
  5
1BF
  8
L
  6
CONTINUOUS
 62
     3
 10
6.1919859422185928
 20
7.3428034432718361
 30
0.0
 42
0.4142135623730951
  0
VERTEX
  5
1C0
  8
L
  6
CONTINUOUS
 62
     3
 10
6.2119859422185746
 20
7.3628034432718179
 30
0.0
  0
VERTEX
  5
1C1
  8
L
  6
CONTINUOUS
 62
     3
 10
6.2119859422185746
 20
7.5453034432717088
 30
0.0
 42
-0.4142135623730951
  0
VERTEX
  5
1C2
  8
L
  6
CONTINUOUS
 62
     3
 10
6.2319859422185573
 20
7.5653034432716906
 30
0.0
  0
VERTEX
  5
1C3
  8
L
  6
CONTINUOUS
 62
     3
 10
6.2619859422192121
 20
7.5653034432716906
 30
0.0
 42
-0.4142135623730951
  0
VERTEX
  5
1C4
  8
L
  6
CONTINUOUS
 62
     3
 10
6.281985942219193
 20
7.5453034432717088
 30
0.0
  0
VERTEX
  5
1C5
  8
L
  6
CONTINUOUS
 62
     3
 10
6.2819859422196478
 20
7.1628034432715451
 30
0.0
 42
-0.4142135623730951
  0
VERTEX
  5
1C6
  8
L
  6
CONTINUOUS
 62
     3
 10
6.2319859422194659
 20
7.1128034432718179
 30
0.0
  0
VERTEX
  5
1C7
  8
L
  6
CONTINUOUS
 62
     3
 10
6.1669859422194122
 20
7.1128034432718179
 30
0.0
 42
0.4142135623729234
  0
VERTEX
  5
1C8
  8
L
  6
CONTINUOUS
 62
     3
 10
6.1469859422194304
 20
7.0928034432718361
 30
0.0
  0
VERTEX
  5
1C9
  8
L
  6
CONTINUOUS
 62
     3
 10
6.1469859422189748
 20
6.9125086880135633
 30
0.0
 42
-0.4142135623730951
  0
VERTEX
  5
1CA
  8
L
  6
CONTINUOUS
 62
     3
 10
6.126985942218993
 20
6.8925086880135806
 30
0.0
  0
VERTEX
  5
1CB
  8
L
  6
CONTINUOUS
 62
     3
 10
6.0969859422187929
 20
6.8925086880140363
 30
0.0
 42
-0.4142135623730951
  0
VERTEX
  5
1CC
  8
L
  6
CONTINUOUS
 62
     3
 10
6.0769859422188111
 20
6.9125086880140181
 30
0.0
  0
VERTEX
  5
1CD
  8
L
  6
CONTINUOUS
 62
     3
 10
6.0769859422188111
 20
7.0928034432718361
 30
0.0
 42
0.4142135623739327
  0
VERTEX
  5
1CE
  8
L
  6
CONTINUOUS
 62
     3
 10
6.0569859422188301
 20
7.1128034432718179
 30
0.0
  0
VERTEX
  5
1CF
  8
L
  6
CONTINUOUS
 62
     3
 10
6.02698594221863
 20
7.1128034432718179
 30
0.0
  0
VERTEX
  5
1D0
  8
L
  6
CONTINUOUS
 62
     3
 10
6.02698594221863
 20
7.112803443271364
 30
0.0
 42
-0.4142135623724292
  0
VERTEX
  5
1D1
  8
L
  6
CONTINUOUS
 62
     3
 10
5.976985942218902
 20
7.1628034432715451
 30
0.0
  0
VERTEX
  5
1D2
  8
L
  6
CONTINUOUS
 62
     3
 10
5.9769859422189029
 20
10.81280344327163
 30
0.0
 42
-0.414213562372429
  0
VERTEX
  5
1D3
  8
L
  6
CONTINUOUS
 62
     3
 10
6.02698594221863
 20
10.862803443271821
 30
0.0
  0
VERTEX
  5
1D4
  8
L
  6
CONTINUOUS
 62
     3
 10
6.0519859422191757
 20
10.862803443271821
 30
0.0
 42
-0.4142135623744271
  0
VERTEX
  5
1D5
  8
L
  6
CONTINUOUS
 62
     3
 10
6.101985942218902
 20
10.81280344327163
 30
0.0
  0
VERTEX
  5
1D6
  8
L
  6
CONTINUOUS
 62
     3
 10
6.101985942218902
 20
9.8778034432719188
 30
0.0
  0
VERTEX
  5
1D7
  8
L
  6
CONTINUOUS
 62
     3
 10
6.086985942218802
 20
9.8628034432718188
 30
0.0
  0
SEQEND
  5
1D8
  8
L
  6
CONTINUOUS
 62
     3
  0
DIMENSION
  5
172
  8
0
  2
*D11
 10
5.4197071748900418
 20
6.8925086880135824
 30
0.0
 11
5.4197071748900409
 21
8.8776560656427002
 31
0.0
 70
     0
 13
6.0519859422190621
 23
10.862803443271821
 33
0.0
 14
6.126985942218993
 24
6.8925086880135806
 34
0.0
 50
90.0
1001
ACAD
1000
DSTYLE
1002
{
1070
    40
1040
1.0416666666666661
1002
}
  0
DIMENSION
  5
180
  8
0
  2
*D12
 10
6.281985942219193
 20
11.142610086373169
 30
0.0
 11
6.985110942219193
 21
11.142610086373169
 31
0.0
 70
     0
 13
5.9769859422189029
 23
10.81280344327163
 33
0.0
 14
6.281985942219193
 24
7.5453034432717088
 34
0.0
1001
ACAD
1000
DSTYLE
1002
{
1070
    40
1040
1.0416666666666661
1002
}
  0
ENDSEC
  0
EOF
